Quick Browse
Movies
TV shows
Music
Games
Applications
Anime
Other

Latest Articles

Friends
Torrents.me
Torrent Download
Movie4u
1337x
RARBG
Full Movies
Torrent Downloads

Verified torrent Peter Rabbit (2018) x 1606 (2160p) HDR 5 1 x265 Phun Psyz


    Seeders : 147      Leechers : 9

Hash :4E436659A1922C162ACAEB765F1C837CBE880D02
Added :Last Month in Movies - Movies
Size :3.25 GB
Stream :Watch Online Full Movie @ Movie4u
Share :








Warning! Do not Download Torrents Without a VPN!
Your IP Address is .   And Location is
Your Internet Provider and Government can track your torrent Activity!  Hide your IP ADDRESS with a VPN!
We Strongly Recommend Using Best Cheap VPN to Anonymize your Torrenting.

Note :

Please Update (Trackers Info) Before Downloading Torrents to See Updated Seeders And Leechers for Batter Download Speed.

Trackers List

Tracker NameLast CheckStatusSeedersLeechers
udp://mgtracker.org:6969/announce21 days agosuccess1477
http://mgtracker.org:6969/announce21 days agosuccess1477
udp://tracker.leechers-paradise.org:6969/announce21 days agosuccess799
udp://shadowshq.yi.org:6969/announce21 days agosuccess799
udp://eddie4.nl:6969/announce21 days agosuccess799
udp://tracker.coppersurfer.tk:6969/announce21 days agosuccess696
udp://tracker.opentrackr.org:1337/announce21 days agosuccess696
udp://tracker.pirateparty.gr:6969/announce21 days agosuccess696
udp://9.rarbg.me:2710/announce21 days agosuccess623
udp://9.rarbg.to:2710/announce21 days agosuccess623
udp://public.popcorn-tracker.org:6969/announce21 days agosuccess627
udp://inferno.demonoid.pw:3391/announce21 days agosuccess585
udp://inferno.demonoid.pw:3418/announce21 days agosuccess585
udp://tracker.tiny-vps.com:6969/announce21 days agosuccess534
udp://tracker.vanitycore.co:6969/announce21 days agosuccess434
http://bigfoot1942.sektori.org:6969/announce21 days agosuccess81
udp://tracker.cypherpunks.ru:6969/announce21 days agosuccess00
udp://asnet.pw:2710/announce21 days agosuccess00
udp://tracker.xku.tv:6969/announce21 days agosuccess00
http://tracker.opentrackr.org/announce21 days agosuccess00
udp://tracker.mgtracker.org:2710/announce21 days agosuccess00
udp://tracker.sktorrent.net:6969/announce21 days agosuccess00
udp://tracker.internetwarriors.net:1337/announce21 days agosuccess00
udp://p4p.arenabg.ch:1337/announce21 days agosuccess00
udp://tracker.blackunicorn.xyz:6969/announce21 days agosuccess00
udp://glotorrents.pw:6969/announce21 days agosuccess00
udp://tracker.trackerfix.com:80/announce21 days agosuccess00
http://tracker2.wasabii.com.tw:6969/announce21 days agosuccess00
http://explodie.org:6969/announce21 days agosuccess00
udp://explodie.org:6969/announce21 days agosuccess00
udp://castradio.net:6969/announce21 days agosuccess00
http://tracker.trackerfix.com/announce21 days agosuccess00




Torrent File Content (1 file)


     Peter Rabbit (2018) x 1606 (2160p) HDR 5.1 x265 Phun Psyz.mkv -
3.25 GB



Description



Movies : Animation : 4K / UHD : English
.
www.imdb.com/title/tt5117670/

Feature adaptation of Beatrix Potter's classic tale of a rebellious rabbit trying to sneak into a farmer's vegetable garden.

Source: WhiteRhino (HDR) (13.1 GiB)



Format : Matroska
Format version : Version 4 / Version 2
File size : 3.25 GiB
Duration : 1 h 34 min
Overall bit rate : 4 918 kb/s

Video
ID : 1
Format : HEVC
Format/Info : High Efficiency Video Coding
Format profile : Main [email protected]@High
Codec ID : V_MPEGH/ISO/HEVC
Duration : 1 h 34 min
Bit rate : 4 500 kb/s
Width : 3 840 pixels
Height : 1 606 pixels
Display aspect ratio : 2.40:1
Frame rate mode : Constant
Frame rate : 23.976 (24000/1001) FPS
Color space : YUV
Chroma subsampling : 4:2:0
Bit depth : 10 bits
Bits/(Pixel*Frame) : 0.030
Stream size : 2.98 GiB (92%)
Writing library : x265 2.6:[Windows][GCC 7.1.0][64 bit] 10bit

Audio
ID : 2
Format : AC-3
Format/Info : Audio Coding 3
Format settings, Endianness : Big
Codec ID : A_AC3
Duration : 1 h 34 min
Bit rate mode : Constant
Bit rate : 320 kb/s
Channel(s) : 6 channels
Channel positions : Front: L C R, Side: L R, LFE
Sampling rate : 48.0 kHz
Frame rate : 31.250 FPS (1536 SPF)
Bit depth : 16 bits
Compression mode : Lossy
Stream size : 217 MiB (7%)
Title : Surround

Text
Language : English
Language : English

Related torrents

Torrent NameAddedSizeSeedLeechHealth
2 months ago - in Movies4.6 GB00
3 months ago - in Movies2.2 GB169
Last Month - in Movies4.31 GB113
Last Month - in Movies5.43 GB6013
Last Month - in Movies3.28 GB257

Note :

Feel free to post any comments about this torrent, including links to Subtitle, samples, screenshots, or any other relevant information. Please Dont Download anything from Comments, And Dont Post Links to Streaming Sites like Fmovies, Xmovies8, 123Movies, GoMovies, CMovieshd, Solarmovie, Watchfree, Putlockers, GoStream, m4ufree etc.

Comments (0 Comments)




Please login or create a FREE account to post comments

Latest Searches

| the handmaids tale the handmaids tale s01e10 | bambino grandes exitos | Jain Come | The Big Bang Theory S07 COMPLETE BluRay | lady gaga flac 96 | dual lat 2011 | x265 Beirut | agents of s h i e l d s04e16 lol | House 2 Horror | scarlett sage zoey |